Carolyn Wonderland - Tempting Fate (2021) FLAC

Carolyn Wonderland - Tempting Fate (2021) FLAC

  • обновлен: 4-11-2021
  • Автор: Andersoni
  • категория: музыка
  • просмотры: 28
  • размер: 295.65 MB


Название: Tempting Fate
Исполнитель: Carolyn Wonderland
Год: 2021
Жанр: Blues-Rock
Страна: United States

Продолжительность: 00:43:16
Формат/Кодек: FLAC
Битрейт аудио: Lossless
Тип рипа: image+.cue

[spoiler=Трек-лист]
01. Fragile Peace And Certain War [00:03:59]
02. Texas Girl And Her Boots [00:04:19]
03. Broken Hearted Blues [00:04:52]
04. Fortunate Few [00:03:25]
05. Crack In The Wall [00:03:09]
06. The Laws Must Change [00:05:00]
07. Honey Bee [00:04:26]
08. On My Feet [00:02:59]
09. It Takes A Lot To Laugh It Takes A Train To Cry [00:03:47]
10. Loser [00:07:16]
[/spoiler]
[spoiler=Exact Audio Copy]Exact Audio Copy V1.5 from 20. February 2020

EAC extraction logfile from 14. October 2021, 20:11

Carolyn Wonderland / Tempting Fate

Used drive : Optiarc DVD RW AD-7240S Adapter: 1 ID: 0

Read mode : Secure
Utilize accurate stream : Yes
Defeat audio cache : Yes
Make use of C2 pointers : No

Read offset correction : 48
Overread into Lead-In and Lead-Out : No
Fill up missing offset samples with silence : Yes
Delete leading and trailing silent blocks : No
Null samples used in CRC calculations : Yes
Used interface : Native Win32 interface for Win NT & 2000

Used output format : User Defined Encoder
Selected bitrate : 896 kBit/s
Quality : High
Add ID3 tag : No
Command line compressor : C:Program Files (x86)Exact Audio CopyFlacflac.exe
Additional command line options : -V -8 -T "Date=%year%" -T "Genre=%genre%" %source%

TOC of the extracted CD

Track | Start | Length | Start sector | End sector
---------------------------------------------------------
1 | 0:00.00 | 3:59.08 | 0 | 17932
2 | 3:59.08 | 4:19.69 | 17933 | 37426
3 | 8:19.02 | 4:52.05 | 37427 | 59331
4 | 13:11.07 | 3:25.25 | 59332 | 74731
5 | 16:36.32 | 3:09.33 | 74732 | 88939
6 | 19:45.65 | 5:00.53 | 88940 | 111492
7 | 24:46.43 | 4:26.13 | 111493 | 131455
8 | 29:12.56 | 2:59.36 | 131456 | 144916
9 | 32:12.17 | 3:47.29 | 144917 | 161970
10 | 35:59.46 | 7:16.43 | 161971 | 194713

Range status and errors

Selected range

Filename D:My Music Archive_D__My RipsCarolyn Wonderland - Tempting FateCarolyn Wonderland - Tempting Fate.wav

Peak level 96.6 %
Extraction speed 3.8 X
Range quality 100.0 %
Test CRC AA615A93
Copy CRC AA615A93
Copy OK

No errors occurred

AccurateRip summary

Track 1 not present in database
Track 2 not present in database
Track 3 not present in database
Track 4 not present in database
Track 5 not present in database
Track 6 not present in database
Track 7 not present in database
Track 8 not present in database
Track 9 not present in database
Track 10 not present in database

None of the tracks are present in the AccurateRip database

End of status report

==== Log checksum 0196E4137AA13E2423F1E366939E94D647516CCC87D49E836A3F1C76A2408CCD ====[spoiler=Скрытый текст][/spoiler]
скачивайте Carolyn Wonderland - Tempting Fate (2021) FLAC бесплатно прямо с Tfile.me
Комментарии (0)
  • bowtiesmilelaughingblushsmileyrelaxedsmirk
    heart_eyeskissing_heartkissing_closed_eyesflushedrelievedsatisfiedgrin
    winkstuck_out_tongue_winking_eyestuck_out_tongue_closed_eyesgrinningkissingstuck_out_tonguesleeping
    worriedfrowninganguishedopen_mouthgrimacingconfusedhushed
    expressionlessunamusedsweat_smilesweatdisappointed_relievedwearypensive
    disappointedconfoundedfearfulcold_sweatperseverecrysob
    joyastonishedscreamtired_faceangryragetriumph
    sleepyyummasksunglassesdizzy_faceimpsmiling_imp
    neutral_faceno_mouthinnocent